kosmito

kosmito

Sábado, 28 Marzo 2020 04:49

Dorohedoro 11

Y bueno lo hubiera terminado ayer pero por cierto problemas lo hago hoy por eso dije entre el viernes y sabado, en fin aqui tienen el 11 y el 12 tambien saldra lo mas rapido posible esta vez.

 

Captura: Clic en la imagen para agrandar

Descarga Directa
Mediafire Estara disponible para la tarde noche
1Ficher Estara disponible para la tarde noche
Torrent
Jueves, 26 Marzo 2020 15:15

Dorohedoro 10

bueno finalmente logre poner tiempo nuevamente con todo este lio del corona virus el proximo cap o saldra esta noche a la madrugada o el sabado por la tarde Somali sera la siguiente serie que estare concentrada una vez que termine con eso empezare a traducir el primer cap de la nueva serie =P

 

Captura: Clic en la imagen para agrandar

Descarga Directa
Mediafire
Viernes, 13 Marzo 2020 04:45

Dorohedoro 09

ando con muchos lios en casa pero ya va saliendo estuve trabajando en un servidor NAS para poder hacer las cosas desde cualquier pc en mi casa hasta con el telefono puedo descargar raws a mi servidor NAS aunque necesita unos respuestos mas y estara terminado en cuanto lo este empezare a sacar las cosas mas rapido

 

Captura: Clic en la imagen para agrandar

Descarga Directa
Mediafire
Viernes, 06 Marzo 2020 16:39

Somali to Mori no Kamisama 05

Y bueno voy recuperando el ritmo haber si logro ponerme al dia la semana que viene

Captura: Clic en la imagen para agrandar

Viernes, 06 Marzo 2020 16:00

Dorohedoro 08

Mendigas olas de calor quieto que llegue el otoño asi me pongo al dia con todo joder xD

Bueno dejando de lado mis quejas hemos abierto un sector para donaciones que tendran ciertas ventajas una de las principales es la descarga directa desde nuestro servidor sin esperas a maxima velocidad esto solo sera con las series de temporada que hagamos en el fansub ya que no tengo espacio para almacenar 2 temporadas asique bueno despues tienen rangos especiales podran discutir con el staff por cambios lean las reglas para mas informacion les dejo el link Donacion o Patreon como sea que le digan ahora (Recuerden que deben estar registrados en el foro para poder descargar las series pronto se añadiran los subs tambien)

Captura: Clic en la imagen para agrandar

Descarga Directa
Mediafire

 

Bueno se da la casualidad que salio todo el soundtrack bueno no todo no las canciones extras pero si las del opening y ending asique aqui les hice la conversion a mp3 porque todo estaba en FLAC

[Imagen: Cover-dorohedoro.jpg]


Lista de Canciones:

01) Welcome to Chaos
02) Welcome to Chaos (Instrumental)
03). Who am I _
04). Night SURFING
05). D.D.D.D
06) So HUNGRY
07) So HUNGRY (Instrumental)


la ultima cancion fue una extra que venia con Welcome to chaos y la deje viene con 2 covers 

La version FLAC solo estara disponible por descarga directa esto se debe a su gran tamaño.

Mediainfo MP3 (Primer cancion)

Format                      : MPEG Audio
Format version              : Version 1
Format profile              : Layer 3
Duration                    : 3 min 38 s
Bit rate mode              : Constant
Bit rate                    : 320 kb/s
Channel(s)                  : 2 channels
Sampling rate              : 48.0 kHz
Compression mode            : Lossy
Stream size                : 8.32 MiB (90%)


MediaInfo FLAC (Primer cancion)

Format                      : FLAC
Format/Info                : Free Lossless Audio Codec
Duration                    : 3 min 38 s
Bit rate mode              : Variable
Bit rate                    : 3 033 kb/s
Channel(s)                  : 2 channels
Channel layout              : L R
Sampling rate              : 96.0 kHz
Bit depth                  : 24 bits
Compression mode            : Lossless
Stream size                : 78.8 MiB (99%)
Writing library            : Lavf58.30.100

 

Version MP3 320Kkbps
Version Flac
Tema en el foro: Dorohedoro Soundtrack
Martes, 25 Febrero 2020 04:05

Dorohedoro 07

Dije a la noche bueno ahora es madrugada del martes que mas da solo esta subido al torrent y a 1ficher mediafire estara para mañana.

Nota: Debido a unos problemas con el procesamiento del pago a mega no estara disponible por un tiempo y esta limitada las descargas de esa cuenta por tal motivo las series seran subidas a mediafire temporalmente aunque ambas somali y dorohedoro ya estan subidas en 1ficher

Captura: Clic en la imagen para agrandar

Descarga Directa
Mediafire
Domingo, 23 Febrero 2020 15:31

Dorohedoro 06

Despues de una semanas muy complicadas y sin contar que hasta el sabado andaba con un poco de fiebre finalmente puedo ponerme de nuevo a hacer esto asique aqui les va somali lo ire haciendo durante la semana y el capitulo 7 de hoy de dorohedoro probablemente para mañana en la noche =P

Nota: otra vez mega no registro el pago no funcionara por unos dias se esta subiendo a 1ficher los caps y mediafire

Captura: Clic en la imagen para agrandar

Descarga Directa
Martes, 11 Febrero 2020 01:27

Dorohedoro 05

Y finalmente estamos al dia con esta serie siguiente somali jajaja quizas mañana en la noche misma hora no lo se e.e

 

Captura: Clic en la imagen para agrandar

Descarga Directa
Domingo, 09 Febrero 2020 21:23

Dorohedoro 04

Y finalmente la ola de calor termino y yo ya puedo hacer lo de siempre aunque estoy super atrasada en muchas cosas en estos dias me pondre al dia con esto probablemente mañana salga el cap 05 si lo termine esta noche somali la retrasare al martes o miercoles Disculpen las molestias pero tenia que descansar despues de una ola de calor de mas 40 grados durante el dia y 30 durante la noche solo dormia 4 a 6 horas necesitaba un dia para recuperar el sueño xD en fin aqui les dejo el cap

Captura: Clic en la imagen para agrandar

Descarga Directa
Página 1 de 4