Domingo, 01 Marzo 2020 03:19

Dorohedoro Soundtrack Op + End Completos MP3 320Kbps & FLAC Audio

Escrito por
Valora este artículo
(0 votos)

Bueno se da la casualidad que salio todo el soundtrack bueno no todo no las canciones extras pero si las del opening y ending asique aqui les hice la conversion a mp3 porque todo estaba en FLAC

[Imagen: Cover-dorohedoro.jpg]


Lista de Canciones:

01) Welcome to Chaos
02) Welcome to Chaos (Instrumental)
03). Who am I _
04). Night SURFING
05). D.D.D.D
06) So HUNGRY
07) So HUNGRY (Instrumental)


la ultima cancion fue una extra que venia con Welcome to chaos y la deje viene con 2 covers 

La version FLAC solo estara disponible por descarga directa esto se debe a su gran tamaño.

Mediainfo MP3 (Primer cancion)

Format                      : MPEG Audio
Format version              : Version 1
Format profile              : Layer 3
Duration                    : 3 min 38 s
Bit rate mode              : Constant
Bit rate                    : 320 kb/s
Channel(s)                  : 2 channels
Sampling rate              : 48.0 kHz
Compression mode            : Lossy
Stream size                : 8.32 MiB (90%)


MediaInfo FLAC (Primer cancion)

Format                      : FLAC
Format/Info                : Free Lossless Audio Codec
Duration                    : 3 min 38 s
Bit rate mode              : Variable
Bit rate                    : 3 033 kb/s
Channel(s)                  : 2 channels
Channel layout              : L R
Sampling rate              : 96.0 kHz
Bit depth                  : 24 bits
Compression mode            : Lossless
Stream size                : 78.8 MiB (99%)
Writing library            : Lavf58.30.100

 

Version MP3 320Kkbps
Version Flac
Tema en el foro: Dorohedoro Soundtrack
Visto 3122 veces

Artículos relacionados (por etiqueta)

Deja un comentario

Asegúrese de introducir toda la información requerida, indicada por un asterisco (*). No se permite código HTML.