• Gleipnir 04

    Categoria: En Progreso

    y finalmente si me tardo mas de lo usual pero ando en un par de cosas y tratando de pagar las cuentas en casa, dejando eso de lado princess connect saldra de a packs de 2 caps vallan preparandose, esta temporada me esta tomando trabajo traducir las series no por mis tiempos sino que las traducciones en ingles no son muy buenas en consecuencia termino traduciendo mas del japones que del ingles lo que me toma mucho mas tiempo asi que perdon si les urge ver los caps pero no me gusta traducir a lo rapido y furioso e.e

    Captura: Clic en la imagen para agrandar

    Descarga Directa
    Mediafire
    Visto 541 veces
  • Gleipnir 03

    Categoria: En Progreso

    Bueno son raras las veces que esta subido primero en descarga directa y luego en torrent jajaja pero esta vez paso, en cuanto a la serie ganadora se vera un poquito retrasada pero saldra todo probablemente o 2 caps para el fin de semana o todos para el miercoles proximo en fin aqui tienen a este chico que no le gusta lo que ve... miren el capitulo y sabran a lo que me refiero xDDDD

    Captura: Clic en la imagen para agrandar

    Descarga Directa
    Mediafire
     
    Comenten haber si lo hacen jajaja
    Visto 472 veces
  • Gleipnir 02 y V2 del 01

    Categoria: En Progreso

    un par de retrasos con esto pero se debio mas que nada a la terminacion del karaoke del nuevo karaoker del grupo asi que aqui les dejo el cap 02 y el cap 01 ya esta actualizado en el servidor mediafire y 1ficher en torrents sera publicado como V2

     

    Captura: Clic en la imagen para agrandar

    Descarga Directa
    Mediafire
    Visto 649 veces
  • Gleipnir 01

    Categoria: En Progreso

    Y empezamos una serie que no la anunciamos pero me dijo un pajarito que nadie la traducia asi que les traigo esta serie BNA se retrasara un poco mas he estado actualizando los servidores y otras cosas e.e

    Captura: Clic en la imagen para agrandar

    Descarga Directa
    Mediafire
     
    Visto 620 veces
  • Gleipnir 03/12

    Categoria: En Progreso
    [Imagen: portada.jpg]

    Historia:
    Shuichi Kagaya no es un humana. Tiene un olfato antinatural y se puede transformar en una bestia increíblemente poderosa … de algún modo. Hace todo lo que puede para evitar destacar y ser descubierto, pero ninguna buena acción queda impune, y su decisión de usar su poder para salvar a una chica será el final de su tranquila vida.

    Captura Clic para Agrandar:
    [Imagen: (KnzF)Gleipnir-01-1080p.jpg]

    Descarga Directa:
    Mediafire
    Torrent
    Visto 750 veces
Domingo, 01 Marzo 2020 03:19

Dorohedoro Soundtrack Op + End Completos MP3 320Kbps & FLAC Audio

Escrito por
Valora este artículo
(0 votos)

Bueno se da la casualidad que salio todo el soundtrack bueno no todo no las canciones extras pero si las del opening y ending asique aqui les hice la conversion a mp3 porque todo estaba en FLAC

[Imagen: Cover-dorohedoro.jpg]


Lista de Canciones:

01) Welcome to Chaos
02) Welcome to Chaos (Instrumental)
03). Who am I _
04). Night SURFING
05). D.D.D.D
06) So HUNGRY
07) So HUNGRY (Instrumental)


la ultima cancion fue una extra que venia con Welcome to chaos y la deje viene con 2 covers 

La version FLAC solo estara disponible por descarga directa esto se debe a su gran tamaño.

Mediainfo MP3 (Primer cancion)

Format                      : MPEG Audio
Format version              : Version 1
Format profile              : Layer 3
Duration                    : 3 min 38 s
Bit rate mode              : Constant
Bit rate                    : 320 kb/s
Channel(s)                  : 2 channels
Sampling rate              : 48.0 kHz
Compression mode            : Lossy
Stream size                : 8.32 MiB (90%)


MediaInfo FLAC (Primer cancion)

Format                      : FLAC
Format/Info                : Free Lossless Audio Codec
Duration                    : 3 min 38 s
Bit rate mode              : Variable
Bit rate                    : 3 033 kb/s
Channel(s)                  : 2 channels
Channel layout              : L R
Sampling rate              : 96.0 kHz
Bit depth                  : 24 bits
Compression mode            : Lossless
Stream size                : 78.8 MiB (99%)
Writing library            : Lavf58.30.100

 

Version MP3 320Kkbps
Version Flac
Tema en el foro: Dorohedoro Soundtrack
Visto 6065 veces

Artículos relacionados (por etiqueta)

Deja un comentario

Asegúrese de introducir toda la información requerida, indicada por un asterisco (*). No se permite código HTML.