• Dorohedoro 11

    Categoria: En Progreso

    Y bueno lo hubiera terminado ayer pero por cierto problemas lo hago hoy por eso dije entre el viernes y sabado, en fin aqui tienen el 11 y el 12 tambien saldra lo mas rapido posible esta vez.

     

    Captura: Clic en la imagen para agrandar

    Descarga Directa
    Mediafire
    1Ficher Estara disponible para la noche
    Torrent
    Visto 36 veces
  • Dorohedoro 10

    Categoria: En Progreso

    bueno finalmente logre poner tiempo nuevamente con todo este lio del corona virus el proximo cap o saldra esta noche a la madrugada o el sabado por la tarde Somali sera la siguiente serie que estare concentrada una vez que termine con eso empezare a traducir el primer cap de la nueva serie =P

     

    Captura: Clic en la imagen para agrandar

    Descarga Directa
    Mediafire
    Etiquetas: Anime Peleas Accion
    Visto 54 veces
  • Dorohedoro 09

    Categoria: En Progreso

    ando con muchos lios en casa pero ya va saliendo estuve trabajando en un servidor NAS para poder hacer las cosas desde cualquier pc en mi casa hasta con el telefono puedo descargar raws a mi servidor NAS aunque necesita unos respuestos mas y estara terminado en cuanto lo este empezare a sacar las cosas mas rapido

     

    Captura: Clic en la imagen para agrandar

    Descarga Directa
    Mediafire
    Visto 155 veces
  • Somali to Mori no Kamisama 05

    Categoria: En Progreso

    Y bueno voy recuperando el ritmo haber si logro ponerme al dia la semana que viene

    Captura: Clic en la imagen para agrandar

    Visto 110 veces
  • Dorohedoro 08

    Categoria: En Progreso

    Mendigas olas de calor quieto que llegue el otoño asi me pongo al dia con todo joder xD

    Bueno dejando de lado mis quejas hemos abierto un sector para donaciones que tendran ciertas ventajas una de las principales es la descarga directa desde nuestro servidor sin esperas a maxima velocidad esto solo sera con las series de temporada que hagamos en el fansub ya que no tengo espacio para almacenar 2 temporadas asique bueno despues tienen rangos especiales podran discutir con el staff por cambios lean las reglas para mas informacion les dejo el link Donacion o Patreon como sea que le digan ahora (Recuerden que deben estar registrados en el foro para poder descargar las series pronto se añadiran los subs tambien)

    Captura: Clic en la imagen para agrandar

    Descarga Directa
    Mediafire

     

    Visto 161 veces

Mostrando artículos por etiqueta: Soundtrack

Bueno se da la casualidad que salio todo el soundtrack bueno no todo no las canciones extras pero si las del opening y ending asique aqui les hice la conversion a mp3 porque todo estaba en FLAC

[Imagen: Cover-dorohedoro.jpg]


Lista de Canciones:

01) Welcome to Chaos
02) Welcome to Chaos (Instrumental)
03). Who am I _
04). Night SURFING
05). D.D.D.D
06) So HUNGRY
07) So HUNGRY (Instrumental)


la ultima cancion fue una extra que venia con Welcome to chaos y la deje viene con 2 covers 

La version FLAC solo estara disponible por descarga directa esto se debe a su gran tamaño.

Mediainfo MP3 (Primer cancion)

Format                      : MPEG Audio
Format version              : Version 1
Format profile              : Layer 3
Duration                    : 3 min 38 s
Bit rate mode              : Constant
Bit rate                    : 320 kb/s
Channel(s)                  : 2 channels
Sampling rate              : 48.0 kHz
Compression mode            : Lossy
Stream size                : 8.32 MiB (90%)


MediaInfo FLAC (Primer cancion)

Format                      : FLAC
Format/Info                : Free Lossless Audio Codec
Duration                    : 3 min 38 s
Bit rate mode              : Variable
Bit rate                    : 3 033 kb/s
Channel(s)                  : 2 channels
Channel layout              : L R
Sampling rate              : 96.0 kHz
Bit depth                  : 24 bits
Compression mode            : Lossless
Stream size                : 78.8 MiB (99%)
Writing library            : Lavf58.30.100

 

Version MP3 320Kkbps
Version Flac
Tema en el foro: Dorohedoro Soundtrack
Publicado en Sountracks
Sábado, 07 Diciembre 2019 18:22

Beastars SoundTrack OP & END Completos

Como algo Extra les traigo el SoundTrack de Beastars el mismo contiene la versiones completas del Opening y Ending Incluyendo la version Karaoke para el que quiera intentar cantarlo aunque es un verdadero reto el opening jajaja

Aqui les dejo los Cover y la lista de canciones

Nota: el Torrent no sera publicado en Nyaa esta en un tracker de uso Publico

Cover Ali OPENING

Cover Yurika ENDING

Lista de Canciones

ALI
01.Wild Side
02.Jungle Love
03.Wild Side(Instrumental)
04.Wild Side -Anime Ver.-

Yurika Soundtrack Le Zoo
01.Le zoo
02.眠れる本能
03.マーブル
04.Le zoo(Instrumental)
05.眠れる本能(Instrumental)
06.マーブル(Instrumental)

Yurika Soundtrack Le Zoo 2
01.baby baby flow
02.メイキット!
03.baby baby flow(Instrumental)
04.メイキット!(Instrumental)

 

Descarga

Torrent

Mediafire

Recuerden si los links no funcionan pueden contactarse con nosotros usando facebook o discord
Saludos a todos =3

Publicado en Sountracks
Etiquetado como